mardi 30 juin 2015

web recorded video not played in ipad

I record video from web using flash media server. Now using flex default player i tried to play video but, it will not play ipad.(ios device)
I checked that video codec and it is something like following:

libxavs --enable-libxvid --enable-decklink --enable-zlib
  libavutil      52. 92.100 / 52. 92.100
  libavcodec     55. 69.100 / 55. 69.100
  libavformat    55. 45.100 / 55. 45.100
  libavdevice    55. 13.102 / 55. 13.102
  libavfilter     4. 10.100 /  4. 10.100
  libswscale      2.  6.100 /  2.  6.100
  libswresample   0. 19.100 /  0. 19.100
  libpostproc    52.  3.100 / 52.  3.100
[flv @ 0000000002b60220] Stream discovered after head already parsed
Input #0, flv, from 'C:\Users\Administrator\Desktop\123654789.flv':
  Metadata:
    canSeekToEnd    : false
    createdby       : FMS 4.5
    creationdate    : Tue Jun 30 16:27:22 2015
  Duration: 00:00:15.25, start: 0.000000, bitrate: 52 kb/s
    Stream #0:0: Video: flv1, yuv420p, 320x227, 1k tbr, 1k tbn, 1k tbc
    Stream #0:1: Audio: speex, 16000 Hz, mono, s16, 20 kb/s
    Stream #0:2: Data: none

I record video following ways:

netstream.publish("FILENAME","record");

Thanks.

Aucun commentaire:

Enregistrer un commentaire